[GELÖST] ORF 2 Europe statt ORF 2 Wien

In diesem Forum finden alle Themen zu Störungen und Ausfällen Platz, die den Kabelanschluss an sich betreffen (z.B. Totalausfälle) oder nur den TV-/Radiobereich.
Forumsregeln
Forenregeln

Bei Empfangsproblemen lohnt sich u.U. ein Blick in diesen Thread bzw. in den dort verlinkten Helpdesk-Artikel.
Benutzeravatar
DerSarde
Co-Admin
Co-Admin
Beiträge: 12714
Registriert: 17.04.2014, 14:40
Wohnort: Aichach

[GELÖST] ORF 2 Europe statt ORF 2 Wien

Beitrag von DerSarde »

Ich poste es jetzt mal hier, da ich erstmal von einem Fehler ausgehe:

Im Netz Augsburg ist statt ORF 2 Wien aktuell nur die Europaversion ORF 2 Europe zu sehen. Ist das in anderen Netzen in Südbayern auch so, kann da jemand was dazu sagen?
Bleibt zuhause! Stay home!

Digitale Programmübersicht für Vodafone Kabel Deutschland
Digitale Programmübersicht für Vodafone BW/Hessen/NRW (ehem. Unitymedia)

Kabelnetz: voll ausgebaut (862 MHz) mit 1000 Mbit/s
TV: TV Komfort Vielfalt HD Kabelanschluss + Vielfalt HD Extra mit Sagemcom RCI88-320 KDG
Internet: Red Internet & Phone 200 Cable mit FRITZ!Box 6490 (kdg)

UKWFan
Fortgeschrittener
Beiträge: 277
Registriert: 06.09.2008, 17:03
Wohnort: Augsburg

Re: ORF 2 Europe statt ORF 2 Wien

Beitrag von UKWFan »

Jetzt scheint wieder alles normal zu sein. Statt der Teletext-Tafel von ORF2 Europe läuft wieder das gewöhnliche Programm (Rosenheim Cops).
Kabel International Italienisch/Spanisch/Portugiesisch/Polnisch (gratis über Rahmenvereinbarung)
Red Internet & Phone 50 Cable
Sky Entertainment + Sport + Cinema

Benutzeravatar
DerSarde
Co-Admin
Co-Admin
Beiträge: 12714
Registriert: 17.04.2014, 14:40
Wohnort: Aichach

Re: ORF 2 Europe statt ORF 2 Wien

Beitrag von DerSarde »

Hm, hat man da irgendwas getestet und dabei kurz auf ORF 2 Europe geschalten? :confused:

Aber warum sollte Vodafone (Kabel Deutschland) das Signal von ORF 2 Europe in ihrem POC in Frankfurt in dieser Form verarbeiten? Klar, man empfängt den Sender über Sat, aber eingespeist wird es in dessen Netz aktuell nirgends...
Nur im Süden von Baden-Württemberg (Ravensburg, Singen) im ehem. Unitymedia-Netz gibt's das Programm im Kabel, dafür ist aber immer noch das NOC Kerpen zuständig.
Bleibt zuhause! Stay home!

Digitale Programmübersicht für Vodafone Kabel Deutschland
Digitale Programmübersicht für Vodafone BW/Hessen/NRW (ehem. Unitymedia)

Kabelnetz: voll ausgebaut (862 MHz) mit 1000 Mbit/s
TV: TV Komfort Vielfalt HD Kabelanschluss + Vielfalt HD Extra mit Sagemcom RCI88-320 KDG
Internet: Red Internet & Phone 200 Cable mit FRITZ!Box 6490 (kdg)

UKWFan
Fortgeschrittener
Beiträge: 277
Registriert: 06.09.2008, 17:03
Wohnort: Augsburg

Re: ORF 2 Europe statt ORF 2 Wien

Beitrag von UKWFan »

Ich hoffe, sie lassen die Finger von der ORF2-Vollversion. ORF2 Europe ist nicht mehr als eine Notlösung.
Kabel International Italienisch/Spanisch/Portugiesisch/Polnisch (gratis über Rahmenvereinbarung)
Red Internet & Phone 50 Cable
Sky Entertainment + Sport + Cinema

Benutzeravatar
DerSarde
Co-Admin
Co-Admin
Beiträge: 12714
Registriert: 17.04.2014, 14:40
Wohnort: Aichach

Re: ORF 2 Europe statt ORF 2 Wien

Beitrag von DerSarde »

Die Sache hat sich geklärt. Das kam alles schon so vom ORF, sprich Vodafone hatte nichts damit zu tun: https://www.bizeps.or.at/barrierefreihe ... mpfangbar/

Zum Hintergrund: Auf ORF 2 Europe wird z.B. die "Zeit im Bild" um 19:30 Uhr mit österreichischer Gebärdensprache übertragen, das wollte man jetzt wegen Corona auch den DVB-T-Zuschauern in Österreich ermöglichen. Also schaltet man aktuell um 19:30 Uhr von ORF 2 Wien (also der unverschlüsselten SD-Version) zentral auf ORF 2 Europe um und um 20:15 Uhr wieder zurück. Und das ist heute wohl zu spät erfolgt, weswegen noch kurz die Teletext-Infotafel im Kabel zu sehen war.
Bleibt zuhause! Stay home!

Digitale Programmübersicht für Vodafone Kabel Deutschland
Digitale Programmübersicht für Vodafone BW/Hessen/NRW (ehem. Unitymedia)

Kabelnetz: voll ausgebaut (862 MHz) mit 1000 Mbit/s
TV: TV Komfort Vielfalt HD Kabelanschluss + Vielfalt HD Extra mit Sagemcom RCI88-320 KDG
Internet: Red Internet & Phone 200 Cable mit FRITZ!Box 6490 (kdg)

UKWFan
Fortgeschrittener
Beiträge: 277
Registriert: 06.09.2008, 17:03
Wohnort: Augsburg

Re: ORF 2 Europe statt ORF 2 Wien

Beitrag von UKWFan »

Etwas OT:
Mich würde interessieren, mit welcher Bitrate ORF2 im Kabel sendet. Kann da jemand Auskunft geben? Das verwendete Signal ist ja das unverschlüsselte DVB-T2 Signal aus Österreich, welches für Mobilgeräte gedacht ist und somit in sehr überschaubarer Qualität verbreitet wird.
Und darüber hinaus würde mich als technischen Laien noch interessieren, ob die Aufschaltung des Streams von ORF2 Europe für einzelne Sendungen eine Auswirkung auf die Bitrate im Kabelnetz hat oder ob sie unverändert bleibt.

Mal schauen, ob heute die Zurückschaltung um 20:15 Uhr reibungslos funktionieren wird ;-)
Kabel International Italienisch/Spanisch/Portugiesisch/Polnisch (gratis über Rahmenvereinbarung)
Red Internet & Phone 50 Cable
Sky Entertainment + Sport + Cinema

Benutzeravatar
Littlefox
Newbie
Beiträge: 13
Registriert: 24.03.2019, 13:14
Wohnort: Pfaffenhofen

Re: ORF 2 Europe statt ORF 2 Wien

Beitrag von Littlefox »

Hi UKWFan,

der mpeg2-Videostream hat eine mittlere Datenrate von 3.500-3.600 kbit/s, in der Spitze bis zu 4.200 kbit/s, der mp2-Audiostream hingegen hat konstant 192 kbit/s.

Mit ffmpeg schaut das dann so aus:

Code: Alles auswählen

Input #0, mpegts, from 'ORF_2-20200329073043--Wetter-Panorama.mts':
  Duration: 00:02:00.95, start: 53884.580167, bitrate: 4163 kb/s
  Program 52146
    Stream #0:0[0x1d89]: Video: mpeg2video (Main) ([2][0][0][0] / 0x0002), yuv42
0p(tv), 720x576 [SAR 64:45 DAR 16:9], max. 15000 kb/s, 25 fps, 25 tbr, 90k tbn,
50 tbc
    Stream #0:1[0x1d8a](ger): Audio: mp2 ([3][0][0][0] / 0x0003), 48000 Hz, ster
eo, s16p, 192 kb/s
    Stream #0:2[0x1d8c](deu): Subtitle: dvb_teletext ([6][0][0][0] / 0x0006)
Hilft Dir das weiter?

Viele Grüße
Littlefox

UKWFan
Fortgeschrittener
Beiträge: 277
Registriert: 06.09.2008, 17:03
Wohnort: Augsburg

Re: ORF 2 Europe statt ORF 2 Wien

Beitrag von UKWFan »

Danke für deine Bemühungen! Das hilft mir definitiv weiter.
Kabel International Italienisch/Spanisch/Portugiesisch/Polnisch (gratis über Rahmenvereinbarung)
Red Internet & Phone 50 Cable
Sky Entertainment + Sport + Cinema

Benutzeravatar
Littlefox
Newbie
Beiträge: 13
Registriert: 24.03.2019, 13:14
Wohnort: Pfaffenhofen

Re: [GELÖST] ORF 2 Europe statt ORF 2 Wien

Beitrag von Littlefox »

Freut mich, dass ich helfen konnte.
:trippeln:

Viele Grüße
Littlefox

UKWFan
Fortgeschrittener
Beiträge: 277
Registriert: 06.09.2008, 17:03
Wohnort: Augsburg

Re: [GELÖST] ORF 2 Europe statt ORF 2 Wien

Beitrag von UKWFan »

Gestern Abend hat übrigens die senderseitige Umschaltung um 20:15 wieder nicht funktioniert. Die Texttafel von ORF2 Europe aufgrund fehlender Rechte (im Normalprogramm lief die Doku-Serie Universum) war wieder für einige Minuten zu bestaunen... ich hoffe, dass das kein Dauerzustand wird.
Kabel International Italienisch/Spanisch/Portugiesisch/Polnisch (gratis über Rahmenvereinbarung)
Red Internet & Phone 50 Cable
Sky Entertainment + Sport + Cinema